extratorrent - A Fan Made Alternative Login   |   Register
Important Information
Registrations are open now
-------------------------------------

Please click here to register with Extratorrent2 to recieve latest updates, add bookmarks and to post comments.

Friends
Friends

1) ProxyFix

Extratorrent2 > Categories > Movies > Vanishing.Point.1971.720p.BluRay.x264-x0r[PRiME] torrent


Browse Movies torrents

Vanishing.Point.1971.720p.BluRay.x264-x0r[PRiME] torrent


Vanishing Point (1971)
Name: Vanishing Point
Released Year: 1971
Runtime: 99 mins
Gener: Action, Crime, Thriller
Director: Richard C. Sarafian
Country: USA, UK
IMDB Rating: 7.3/10
Plot: During the 1970s, car delivery driver Kowalski delivers hot rods in record time but always runs into trouble with the highway cops.

Download torrent: Download Vanishing.Point.1971.720p.BluRay.x264-x0r[PRiME] torrent Magnet link Bookmark Torrent: Vanishing.Point.1971.720p.BluRay.x264-x0r[PRiME]   Vanishing.Point.1971.720p.BluRay.x264-x0r[PRiME] torrent
Info hash: 5DB1604E7E84FAF36F9EA6D3C064249EB83B9BD3
Category: Categories > Movies
Trackers:
View all torrent trackers >
Health:
 seeds: 2 ,  leechers: 8 |  Update >
Torrent language: English English
Total Size: 2.2 GB
Files List:
7    View torrent files >
Uploader:
showstopper
Torrent added: April 22, 2017, 7:40 am
IMDB: http://www.imdb.com/title/tt0067927
Users rating: ---, not rated. please login to rate.

Download Vanishing.Point.1971.720p.BluRay.x264-x0r[PRiME] torrent



Torrent Description


Vanishing.Point.1971.720p.BluRay.x264-x0r[PRiME]

ImDb: http://www.imdb.com/title/tt0067927



Complete name : Vanishing.Point.1971.720p.BluRay.x264-x0r[TRAILER-Theatrical Trailer][PRiME].mkv
Format : Matroska
Format version : Version 4 / Version 2
File size : 36.6 MiB
Duration : 2 min 15 s
Overall bit rate : 2 274 kb/s
Movie name : Vanishing.Point.1971.720p.BluRay.x264-x0r[TRAILER-Theatrical Trailer]
Encoded date : UTC 2015-01-21 21:36:03
Writing application : mkvmerge v7.4.0 ('Circles') 64bit built on Dec 12 2014 15:04:11
Writing library : libebml v1.3.0 + libmatroska v1.4.1

Video
ID : 1
Format : AVC
Format/Info : Advanced Video Codec
Format profile :
Format settings, CABAC : Yes
Format settings, ReFrames : 8 frames
Codec ID : V_MPEG4/ISO/AVC
Duration : 2 min 15 s
Bit rate : 2 048 kb/s
Width : 1 280 pixels
Height : 720 pixels
Display aspect ratio : 16:9
Frame rate mode : Constant
Frame rate : 23.976 FPS
Color space : YUV
Chroma subsampling : 4:2:0
Bit depth : 8 bits
Scan type : Progressive
Bits/(Pixel*Frame) : 0.093
Stream size : 33.0 MiB (90%)
Writing library : x264 core 142 r2389 956c8d8
Encoding settings : cabac=1 / ref=8 / deblock=1:-2:-2 / analyse=0x3:0x113 / me=umh / subme=9 / psy=1 / psy_rd=1.00:0.25 / mixed_ref=0 / me_range=48 / chroma_me=1 / trellis=1 / 8x8dct=1 / cqm=0 / deadzone=6,6 / fast_pskip=0 / chroma_qp_offset=-4 / threads=12 / lookahead_threads=1 / sliced_threads=0 / nr=0 / decimate=0 / interlaced=0 / bluray_compat=0 / constrained_intra=0 / bframes=4 / b_pyramid=2 / b_adapt=2 / b_bias=0 / direct=3 / weightb=1 / open_gop=0 / weightp=2 / keyint=240 / keyint_min=24 / scenecut=40 / intra_refresh=0 / rc_lookahead=120 / rc=2pass / mbtree=1 / bitrate=2048 / ratetol=1.0 / qcomp=0.00 / qpmin=0 / qpmax=69 / qpstep=4 / cplxblur=20.0 / qblur=0.5 / vbv_maxrate=20000 / vbv_bufsize=25000 / nal_hrd=none / filler=0 / ip_ratio=1.10 / aq=1:1.00
Language : English
Default : Yes
Forced : No
Color range : Limited
Color primaries : BT.709
Transfer characteristics : BT.709
Matrix coefficients : BT.709

Audio
ID : 2
Format : AC-3
Format/Info : Audio Coding 3
Mode extension : CM (complete main)
Format settings, Endianness : Big
Codec ID : A_AC3
Duration : 2 min 14 s
Bit rate mode : Constant
Bit rate : 224 kb/s
Channel(s) : 2 channels
Channel positions : Front: L R
Sampling rate : 48.0 kHz
Frame rate : 31.250 FPS (1536 spf)
Compression mode : Lossy
Stream size : 3.58 MiB (10%)
Title : Stereo
Language : English
Default : Yes
Forced : No

Menu
00:00:00.000 : :Chapter 1




Click Image To View Full Size


Click To View Screenshot
Click To View Screenshot
Click To View Screenshot


Download Vanishing.Point.1971.720p.BluRay.x264-x0r[PRiME] torrent


Related Torrents


Comments   (please login to add your comment!)

wanted 2015     kaushiki     signer     abby cross     growing up hip hop     mickey reise     bim     deep     precrack     vixen alina     loro     jennysimpson     personal affair     magazine issues     ant man     click hindi     hotel artemis sub     massage relax     jackie     bad news bears     on the other side of the tracks     rubberdoll     milffur     kirik     


Home - Browse Torrents

Made with love by an Extratorrent Fan!